Witaj Gościu! jeżeli widzisz ten dymek to znaczy że nie jesteś zarejestrowany/zalogowany. Kliknij by się zarejestrować. Rejestracja zajmie mniej niż 30 sekund, a dzięki niej zyskasz możliwość pobierania, komentowania oraz dodawania torrentów !

MENU


Kategorie


FACEBOOK


PROGRAMY


REKLAMA


ZAGŁOSUJ NA NAS


Torrent



Torrent: Gomorra S03E05 [1080p HDTV H 264 DD5 1] [Napisy PL]
Dodał:  Heisenberg
Data: 07-12-2017
Rozmiar: 2.02 GB
Seed: 25
Peer: 3
Pobierz Torrent


Kategoria:  Seriale Zagraniczne

Zaakceptował: Nie wymagał akceptacji
Liczba pobrań: 15
Liczba komentarzy: 0
Ostatnia aktualizacja: 2017-12-07 09:40:00
OPIS:



produkcja: Włochy
gatunek: Kryminał, Dramat
scenariusz: Roberto Saviano, Stephen Bises, Leonardo Fasoli
reżyseria: Claudio Cupellini
zdjęcia: Paolo Carnera
muzyka: Mokadelic
czas trwania: ok. 45 min.



Gomorra - serial zrealizowany na podstawie bestselleru włoskiego dziennikarza Roberta Saviano. Seria o neapolitańskiej organizacji mafijnej Camorra, zabiera widzów do ciemnych zaułków Neapolu, swoistego sanktuarium przestępczości zorganizowanej.



Marco D'Amore - Ciro di Marzio
Salvatore Esposito - Genny Savastano
Fortunato Cerlino - Pietro Savastano
Fabio De Caro - Malammore
Christian Giroso - O' Cardillo
Giovanni Buselli - Capastorta
Cristina Donadio - Annalisa 'Scianel' Magliocca
Cristiana Dell'Anna - Patrizia
Ivana Lotito - Azzurra Avitabile
Francesco Verde - Domenico
Antonio Ciccone - A Lince
Giovanni Rienzo - O' Puledro
Gianni Spezzano - Fernando



Format : Matroska
Format version : Version 4 / Version 2
File size : 1.90 GiB
Duration : 45 min 13 s
Overall bit rate : 6 014 kb/s
Encoded date : UTC 2017-12-03 13:28:41

Video
ID : 1
Format : AVC
Format/Info : Advanced Video Codec
Format profile : [email protected]
Format settings, CABAC : Yes
Format settings, RefFrames : 4 frames
Codec ID : V_MPEG4/ISO/AVC
Duration : 45 min 13 s
Bit rate : 5 244 kb/s
Width : 1 920 pixels
Height : 1 040 pixels
Display aspect ratio : 1.85:1
Frame rate mode : Constant
Frame rate : 25.000 FPS
Color space : YUV
Chroma subsampling : 4:2:0
Bit depth : 8 bits
Scan type : Progressive
Bits/(Pixel*Frame) : 0.105
Stream size : 1.66 GiB (87%)
Writing library : x264 core 152

Audio 1
ID : 2
Format : AC-3
Format/Info : Audio Coding 3
Format settings, Endianness : Big
Codec ID : A_AC3
Duration : 45 min 13 s
Bit rate mode : Constant
Bit rate : 384 kb/s
Channel(s) : 2 channels
Channel positions : Front: L R
Sampling rate : 48.0 kHz
Frame rate : 31.250 FPS (1536 SPF)
Bit depth : 16 bits
Compression mode : Lossy
Stream size : 124 MiB (6%)
Language : Polish
Service kind : Complete Main
Default : Yes
Forced : Yes

Audio 2
ID : 3
Format : AC-3
Format/Info : Audio Coding 3
Format settings, Endianness : Big
Codec ID : A_AC3
Duration : 45 min 13 s
Bit rate mode : Constant
Bit rate : 384 kb/s
Channel(s) : 6 channels
Channel positions : Front: L C R, Side: L R, LFE
Sampling rate : 48.0 kHz
Frame rate : 31.250 FPS (1536 SPF)
Bit depth : 16 bits
Compression mode : Lossy
Stream size : 124 MiB (6%)
Language : Italian
Service kind : Complete Main
Default : No
Forced : No

Text
ID : 4
Format : UTF-8
Codec ID : S_TEXT/UTF8
Codec ID/Info : UTF-8 Plain Text
Duration : 40 min 49 s
Bit rate : 23 b/s
Count of elements : 226
Stream size : 6.88 KiB (0%)
Language : Polish
Default : No
Forced : No

DETALE TORRENTA:[ ]



Podobne pliki
Nie znaleziono podobnych tytułów!


Komentarze