Witaj Gociu! jeeli widzisz ten dymek to znaczy e nie jeste zarejestrowany/zalogowany. Kliknij by si zarejestrowa. Rejestracja zajmie mniej ni 30 sekund, a dziki niej zyskasz moliwo pobierania, komentowania oraz dodawania torrentw !

MENU


Kategorie


FACEBOOK


PROGRAMY


WspPraca
Poradnik
KAN


ZAGOSUJ NA NAS


Torrent



Torrent: W starym kinie (1977) [TVRip] [XviD] [PL] [Paczka 48]
Doda:  viola62
Data: 13-01-2018
Rozmiar: 6.19 GB
Seed: 0
Peer: 0
Kondycja:
Zaloguj si aby pobra


Kategoria:  Filmy DivX/XviD
Gatunek: Dramat / Obyczajowy
Zaakceptowa: Nie wymaga akceptacji
Liczba pobra: 10
Liczba komentarzy: 0
Ostatnia aktualizacja: 2018-01-19 01:14:59

OPIS:

...( TrackList )...

1977.Antyki
1977.Biohazard
1977.By taki czas
1977.Ciuciubabka
1977.Co za co
1977.Niedziela pewnego maestwa
1977.Poza ukadem
1977.Prawo Archimedesa
1977.Struny
1977.Szarada
1977.We dwoje

...( Dane Techniczne )...

Format                      : AVI
Format/Info                 : Audio Video Interleave
File size                   : 700 MiB
Duration                    : 1h 19mn
Overall bit rate            : 1 233 Kbps
Writing application         : VirtualDubMod 1.5.4.1 (build 2178/release)
Writing library             : VirtualDubMod build 2178/release

Video
ID                          : 0
Format                      : MPEG-4 Visual
Format profile              : Advanced [email protected]
Format settings, BVOP       : 1
Format settings, QPel       : No
Format settings, GMC        : No warppoints
Format settings, Matrix     : Custom
Codec ID                    : XVID
Codec ID/Hint               : XviD
Duration                    : 1h 19mn
Bit rate                    : 1 097 Kbps
Width                       : 704 pixels
Height                      : 528 pixels
Display aspect ratio        : 4:3
Frame rate                  : 25.000 fps
Color space                 : YUV
Chroma subsampling          : 4:2:0
Bit depth                   : 8 bits
Scan type                   : Progressive
Compression mode            : Lossy
Bits/(Pixel*Frame)          : 0.118
Stream size                 : 623 MiB (89%)
Writing library             : XviD 1.1.0 Beta2 (UTC 2005-04-04)

Audio
ID                          : 1
Format                      : MPEG Audio
Format version              : Version 1
Format profile              : Layer 3
Mode                        : Joint stereo
Mode extension              : MS Stereo
Codec ID                    : 55
Codec ID/Hint               : MP3
Duration                    : 1h 19mn
Bit rate mode               : Constant
Bit rate                    : 128 Kbps
Channel(s)                  : 2 channels
Sampling rate               : 48.0 KHz
Compression mode            : Lossy
Stream size                 : 72.7 MiB (10%)
Alignment                   : Aligned on interleaves
Interleave, duration        : 80 ms (2.00 video frames)
Interleave, preload duratio : 504 ms
Writing library             : LAME3.96r
Encoding settings           : -m j -V 4 -q 2 -lowpass 17.5 -b 128

DETALE TORRENTA:[ ]
Podzikowania,
 




Komentarze