Witaj Gościu! jeżeli widzisz ten dymek to znaczy że nie jesteś zarejestrowany/zalogowany. Kliknij by się zarejestrować. Rejestracja zajmie mniej niż 30 sekund, a dzięki niej zyskasz możliwość pobierania, komentowania oraz dodawania torrentów !

MENU


Kategorie


FACEBOOK


PROGRAMY


WspółPraca
Poradnik
KAN


ZAGŁOSUJ NA NAS


Torrent



Torrent: W starym kinie (1976)2 [TVRip] [XviD] [PL][Paczka 47]
Dodał:  viola62
Data: 12-01-2018
Rozmiar: 20.33 GB
Seed: 0
Peer: 0
Kondycja:
Zaloguj się aby pobrać


Kategoria:  Filmy DivX/XviD
Gatunek: Dramat / Obyczajowy
Zaakceptował: Nie wymagał akceptacji
Liczba pobrań: 12
Liczba komentarzy: 0
Ostatnia aktualizacja: 2018-01-19 01:17:00

OPIS:

...( TrackList )...

1976.Honor dziecka
1976.Karino
1976.Klara i Angelika
1976.Kradzież
1976.Krótka podróż
1976.Latarnik
1976.Najlepsze w świecie
1976.Niedzielne dzieci
1976.Ocalić miasto
1976.Oczy uroczne
1976.Odezwij się
1976.Ognie są jeszcze żywe
1976.Olśnienie
1976.Ostatnie takie trio
1976.Powrót
1976.Próba ciśnienia
1976.Próba ognia
1976.Ptaki ptakom
1976.Romans prowincjonalny
1976.Smuga cienia
1976.Spokój
1976.Trędowata
1976.Trochę wielkiej miłości
1976.Wergili
1976.Wielki układ
1976.Za metą start
1976.Za rok, za dzień, za chwilę
1976.Zagrożenie
1976.Zanim nadejdzie dzień
1976.Zdjęcia próbne
1976.Zielone - minione
1976.Złota kaczka
1976.Zofia

...( Dane Techniczne )...

Format                      : AVI
Format/Info                 : Audio Video Interleave
File size                   : 374 MiB
Duration                    : 1h 3mn
Overall bit rate            : 818 Kbps

Video
ID                          : 0
Format                      : MPEG-4 Visual
Format settings, BVOP       : Yes
Format settings, QPel       : No
Format settings, GMC        : No warppoints
Format settings, Matrix     : Default (H.263)
Codec ID                    : DIVX
Codec ID/Info               : Project Mayo
Codec ID/Hint               : DivX 4
Duration                    : 1h 3mn
Bit rate                    : 701 Kbps
Width                       : 640 pixels
Height                      : 464 pixels
Display aspect ratio        : 1.379
Frame rate                  : 25.000 fps
Color space                 : YUV
Chroma subsampling          : 4:2:0
Bit depth                   : 8 bits
Scan type                   : Progressive
Compression mode            : Lossy
Bits/(Pixel*Frame)          : 0.094
Stream size                 : 321 MiB (86%)

Audio
ID                          : 1
Format                      : MPEG Audio
Format version              : Version 1
Format profile              : Layer 3
Codec ID                    : 55
Codec ID/Hint               : MP3
Duration                    : 1h 3mn
Bit rate mode               : Constant
Bit rate                    : 112 Kbps
Channel(s)                  : 2 channels
Sampling rate               : 44.1 KHz
Compression mode            : Lossy
Stream size                 : 51.2 MiB (14%)
Alignment                   : Split accross interleaves
Interleave, duration        : 1000 ms (25.00 video frames)

DETALE TORRENTA:[ ]
Podziękowania,
 




Komentarze